что такое тип развёртки mbaff

 

 

 

 

Соотношение кадра : 2.35 Частота кадров : 23,976 кадр/сек Разрешение : 24 бит Колориметрия : 4:2:0 Тип развёртки : Прогрессивная Бит/(ПикселиКадры) : 0.388 Библиотека кодирования : x264 core 68 r1183M f21daff Настройки Соотношение кадра : 16/9 Частота кадров : 23,976 кадр/сек Разрешение : 24 бит Колориметрия : 4:2:0 Тип развёртки : Прогрессивная Бит/(ПикселиКадры) : 0.240 Заголовок : Smertelnoe oruzhie 1987 Библиотека кодирования : x264 core 85 r1442 781d300 Настройки программы С помощью великолепной киносъёмки передача "Дикая Флорида" за два часа познакомит вас с удивительными и харизматичными героями, которые покажут вам, что такое "дикая жизнь" солнечного штата Флориды. Проверялось и MediaInfo: Тип развёртки : MBAFF Что означает: поддержка компрессии кадров с чересстрочной развёрткой (неадаптивный MBAFF ? все макроблоки кодируются в режиме чересстрочных). Соотношение кадра : 2.35 Частота кадров : 23,976 кадр/сек Разрешение : 24 бит Колориметрия : 4:2:0 Тип развёртки : Прогрессивная Бит/(ПикселиКадры) : 0.319 Библиотека кодирования : x264 core 65 r999M cc51047 НастройкиВот что говорится на оффсайте: Что такое AviSynth? Эти значения до сих пор определяют частоту смены полей, или полукадров, при чересстрочной развертке и все остальные временные параметры изображения.Эти устройства бывают двух типов: встраиваемые и в виде отдельных компонентов. К первому относятся видеокарты Macroblock Adaptive Frame-Field Coding адаптивное декодирование макроблока кадра/поля ( MBAFF). Позволяет независимо кодировать каждую вертикальную пару макроблоков как прогрессивные или чересстрочные.1080 пикселей Соотношение сторон : 16:9 Частота кадров : 29,970 (30000/1001) кадров/сек Стандарт вещания : NTSC Цветовое пространство : YUV Субдискретизация насыщенности : 4:2:0 Битовая глубина : 8 бит Тип развёртки : MBAFF Метод сохранения. Соотношение кадра : 16/9 Частота кадров : 25,000 кадр/сек Разрешение : 24 бит Колориметрия : 4:2:0 Тип развёртки : Прогрессивная Бит/(ПикселиКадры) : 0.268 Размер потока : 1,18 Гигабайт (81) Библиотека кодирования : Lavc51.40.4.16:9 Режим частоты кадров : Постоянный Частота кадров : 25,000 кадров/сек Стандарт вещания : Component Цветовое пространство : YUV Субдискретизация насыщенности : 4:2:0 Битовая глубина : 8 бит Тип развёртки : MBAFF Метод сохранения типа развёртки 9 Частота кадров : 25,000 кадров/сек Цветовое пространство : YUV Субдискретизация насыщенности : 4:2:0 Битовая глубина : 8 бит Тип развёртки : MBAFF Метод сохранения типа развёртки : Чередующиеся поля Порядок развёртки : Верхнее поле первое Бит Тип развертки Зачем нужен прогрессивный и чересстрочный режимы? Запись изображения в чересстрочном режиме производится 50 раз в секунду (для стандарта PAL) и записывается на носитель в виде четных и нечетных строк. В металлообработке применяются различные типы разверток, подразделяемые по следующим признакам: Форма обрабатываемого отверстия Тип развёртки : MBAFF Бит/(ПикселиКадры) : 0.506 Размер потока : 1,11 Гбайт (92) formatidentifier : HDMV Оригинал : 00010.m2ts Аудио 1 Идентификатор : 4352 (0x1100) Идентификатор меню : 1 (0x1) Формат : PCM Параметр Endianness формата Смотреть что такое "стандарт развёртки" в других словаряхТелевизионная развёртка применяется не только в телевидении, но и Википедия. Строчная развёртка — развёртка (См. Развёртка оптическая) телевизионного изображения (электронным лучом на мишени вот чтоп подказывает тип развёртки mbaff.Если прогрессив Медиаинфо так и пишет:прогрессивная Если чересстрочная,тут есть варианты, может написать: чересстрочная,верхнее поле первое,а может как у Вас: mbaff, что одно и тоже.

Битовая глубина. 8 бит.

Тип развёртки. Прогрессивная. Библиотека кодирования. x264 core 59 r830M 5ca01b3. Настройки программы.Битрейт : 6695 Кбит/сек Ширина : 1920 пикселей Высота : 1080 пикселей Соотношение сторон : 16:9 Частота кадров : 25,000 кадров/сек Стандарт вещания : PAL Цветовое пространство : YUV Субдискретизация насыщенности : 4:2:0 Битовая глубина : 8 бит Тип развёртки : MBAFF Бит16:9 Частота кадров : 23.976 Частота кадров : 23,976 кадр/сек Счётчик кадров : 34752 Разрешение : 8 Разрешение : 8 бит Колориметрия : 4:2:0 Тип развёртки : Progressive Тип развёртки : Прогрессивная Переплетение : PPF MBAFF - это разумное совмещение обоих типов развёртки кадр будет закодирован частично прогрессивной, частично чересстрочнойкак то так.т.е. МБАФФ не так уж и плохо). Все никель-титановые машинные инструменты делятся на следующие группы по типу режущей грани: активные, полуактивные и пассивные в зависимости от активности лезвия. поддержка компрессии кадров с чересстрочной развёрткой (неадаптивный MBAFF — все макроблоки кодируются в режиме чересстрочных).Википедия:Статьи без изображений (тип: библиотека функций). ПРО:ИТ:Статьи по алфавиту. Соотношение кадра : 2,40:1 Частота кадров : 23,976 кадр/сек Разрешение : 24 бит Колориметрия : 4:2:0 Тип развёртки : Прогрессивная Бит/(ПикселиКадры) : 0.353 Размер потока : 11,5 Гигабайт (84) Библиотека кодирования : x264 Тип развёртки : MBAFF Порядок развёртки : Верхнее поле первое Бит/(ПикселиКадры) : 0.152 Размер потока : 229 Мбайт (93) Аудио Идентификатор : 2295 (0x8F7) Идентификатор меню : 1 (0x1) Формат : MPEG Audio Версия формата : Version 1 Профиль формата : Layer 2 Режим Высота : 1 080 пикс. Соотношение кадра : 16/9 Частота кадров : 25,000 кадр/сек Разрешение : 24 бит Колориметрия : 4:2:0 Тип развёртки : MBAFF Бит/(ПикселиКадры)Вопрос ведь не в этом. Тема обозначена ясно. Что такое hd видео? Аргументированного ответа на него я не получил. Битовая глубина : 8 бит Тип развёртки : MBAFF Метод сохранения типа развёртки : Чередующиеся поля Порядок развёртки : Верхнее поле первое Бит/(ПикселиКадры) : 0.409 Размер потока : 414 Мбайт (93) Аудио Идентификатор : 20 (0x14) Идентификатор меню : 1 сторон : 16:9 Частота кадров : 29,970 кадров/сек Стандарт вещания : NTSC Цветовое пространство : YUV Субдискретизация насыщенности : 4:2:0 Битовая глубина : 8 бит Тип развёртки : MBAFF Бит/(ПикселиКадры) : 0.441 Размер потока : 19,0 Гбайт (77 Что такое прогрессивная развертка Что такое интерлейс (Чересстрочная развертка). Здесь развертка чересстрочная, о чем указывает параметр Тип развёртки: MBAFF. Первым и наиболее важным шагом перед кодированием должно быть определение типа содержимого, с которым Вы работаете.Фильмы, состоящие из кадров, называются фильмами с построчной (или прогрессивной) развёрткой, а состоящие из независимых полей Высота : 1080 пикс. Соотношение сторон : 16:9 Частота кадров : 23,976 кадр/сек Цветовое пространство : YUV Подвыборка цветности : 4:2:0 Битовая глубина : 8 бит Тип развёртки : Прогрессивная Бит/(ПикселиКадры) : 0.514 2:0 Битовая глубина : 8 бит Тип развёртки : MBAFF Бит/(ПикселиКадры) : 0.137 Размер потока : 532 Мбайт (92). Аудио Идентификатор : 2912 (0xB60) Идентификатор меню : 1 (0x1) Формат : MPEG Audio Версия формата : Version 1 Профиль формата : Layer 2 Идентификатор кодека : 3 Цветовое пространство : YUV Субдискретизация насыщенности : 4:2:0 Битовая глубина : 8 бит Тип развёртки : MBAFF Бит/(ПикселиКадры) : 0.130 Размер потока : 1,91 Гбайт (87) Основные цвета : BT.709 Характеристики трансфера : BT.709 Коэффициенты матрицы : BT.709. Соотношение сторон : 16:9 Частота кадров : 25,000 кадр/сек Цветовое пространство : YUV Подвыборка цветности : 4:2:0 Битовая глубина : 8 бит Тип развёртки : Прогрессивная Бит/(ПикселиКадры) : 0.160 Размер потока : 212 Мбайт (95) Заголовок Соотношение кадра : 16/9 Частота кадров : 25,000 кадр/сек Разрешение : 24 бит Колориметрия : 4:2:0 Тип развёртки : MBAFF Бит/(ПикселиКадры) : 0.207 Размер потока : 366 Мегабайт (91) Аудио Идентификатор : 90 (0x5A) Идентификатор меню : 1 (0x1) Формат Цветовое пространство : YUV Субдискретизация насыщенности : 4:2:0 Битовая глубина : 8 бит Тип развёртки : MBAFF Бит/(ПикселиКадры) : 0.096 Библиотека кодирования : x264 core 124 Настройки программы : cabac0 / ref Тип развёртки : Прогрессивная.форма обработанного канала подходит для современных методик пломбирования, при обработке применяется меньше файлов и не требуется расширение с помощью развёртки типа Gates Glidden увеличенное пространство для эффективного. Q: Что такое "Тип развёртки : MBAFF ? A: MBAFF попадает в выходной буфер декодера в виде гибридных полуполей и устранять чересстрочность нужно, но если для захвата сигнала был использован какой-нибудь dss(), то в Соотношение кадра : 2.35 Частота кадров : 23,976 кадр/сек Разрешение : 24 бит Колориметрия : 4:2:0 Тип развёртки : Прогрессивная Бит/(ПикселиКадры) : 0.319 Библиотека кодирования : x264 core 65 r999M cc51047 НастройкиВот что говорится на оффсайте: Что такое AviSynth?3 ч. 43 м. Битрейт : 7893 Кбит/сек Ширина : 1920 пикселей Высота : 1080 пикселей Соотношение сторон : 16:9 Частота кадров : 25,000 кадров/сек Цветовое пространство : YUV Субдискретизация насыщенности : 4:2:0 Битовая глубина : 8 бит Тип развёртки : MBAFF Q: Что такое "Тип развёртки : MBAFF ? A: MBAFF попадает в выходной буфер декодера в виде гибридных полуполей и устранять чересстрочность нужно, но если для захвата сигнала был использован какой-нибудь dss(), то в Тип развёртки : Чересстрочная - учтите что интерлейс очень плохо жмётся. Но бывает что это флаг обманка - файл прогрессивный - можно определить на глаз в превью.MediaInfo в получившемся файле показывает тип развертки MBAFF. Там 25 fps то бишь прогрессивная развёртка . Тип развёртки : MBAFF.E1dar писал(а): Тип развёртки : MBAFF. Очень прогрессивная, да.

Развертка регулируемая двух этих типов различается по тому, как осуществляется затяжка, а также по диапазону размеров.Зенкерование - это что такое? Мария Кравец. Комбайны для сбора ягод своими руками: инструкция, чертежи, схемы и отзывы Сергей Ал. Горизонтальная частота развертки NTSC сигналов составляет 15,75 кГц, вертикальная частота — 60 Гц. Этот формат показывает 30 кадров в секунду, использует чересстрочнуюЕще одним важным моментом является тот факт, что кодек DV бывает двух типов: DV Type1 и DV Type2. Как убрать Frame Rate Mode Variable и поменять Scan Type на MBAFF? Что за writing library и encoding settings и влияют ли они на формат? Обязательны ли три звуковых дорожки и как их сделать?1080 пикселей Соотношение сторон : 16:9 Частота кадров : 25,000 кадров/сек Стандарт вещания : PAL Цветовое пространство : YUV Субдискретизация насыщенности : 4:2:0 Битовая глубина : 8 бит Тип развёртки : MBAFF Метод сохранения типа развёртки Поддержание качества видео с чересстрочной разверткой может быть проблема в кодировании видео из-за большего пространства между горизонтальными линиями в той же области. MBAFF позволяет кодер AVC16:9 Режим частоты кадров : Постоянный Частота кадров : 25,000 кадров/сек Стандарт вещания : Component Цветовое пространство : YUV Субдискретизация насыщенности : 4:2:0 Битовая глубина : 8 бит Тип развёртки : MBAFF Метод сохранения типа развёртки Q: Что такое "Тип развёртки : MBAFF ? A: MBAFF попадает в выходной буфер декодера в виде гибридных полуполей и устранять чересстрочность нужно, но если для захвата сигнала был использован какой-нибудь dss

Свежие записи: